Inicio   -   Ayuda   -   Contacto   -   ltimos Torrents

Torrents
Documentales842
Pelculas11256
Pelculas HD2068
Series1961
  Episodios22513
Series HD244
  Episodios2743
Juegos2689
  PC1736
Variados1521
  Deportes36
  Programas592
  Videoclips102
  Otros722
Música MP3 3525
Total Torrents57258

Informacin
Esta web no contiene ningn tipo de fichero almacenado.

Todos los archivos se comparten mediante el BitTorrent, un programa P2P de intercambio entre usuarios.



Descarga la ltima versin de uTorrent y baja a la mxima velocidad:
Enrique Iglesias - Bailando (English Version)
Total Descargas:  8.420 En Enero:  8.420

Fecha:  2016-05-14



Torrent:      Descargar         Tamao:  190,70 MB
Descripcin:

Video
ID : 1
Format : AVC
Format/Info : Advanced Video Codec
Format profile : [email protected]
Format settings, CABAC : No
Format settings, ReFrames : 2 frames
Format settings, GOP : M=1, N=24
Muxing mode : Container [email protected]
Codec ID : avc1
Codec ID/Info : Advanced Video Coding
Duration : 4mn 31s
Bit rate : 5 752 Kbps
Width : 1 920 pixels
Height : 1 080 pixels
Display aspect ratio : 16:9
Frame rate mode : Constant
Frame rate : 23.976 fps
Standard : NTSC
Color space : YUV
Chroma subsampling : 4:2:0
Bit depth : 8 bits
Scan type : Progressive
Bits/(Pixel*Frame) : 0.116
Stream size : 186 MiB (98%)
Language : English
Color primaries : BT.601 NTSC
Transfer characteristics : BT.601
Matrix coefficients : BT.601

Audio
ID :2
Format : AAC
Format/Info : Advanced Audio Codec
Format profile : LC
Codec ID : 40
Duration : 4mn 31s
Bit rate mode : Constant
Bit rate : 122 Kbps
Channel count : 2 channels
Channel positions : Front: L R
Sampling rate : 44.1 KHz
Compression mode : Lossy
Stream size : 3.96 MiB (2%)
Language : English



Volver al ndice de Variados







Datos legales


13:27:41
computer