Inicio   -   Ayuda   -   Contacto   -   ltimos Torrents

Torrents
Documentales842
Pelculas11256
Pelculas HD2068
Series1961
  Episodios22513
Series HD244
  Episodios2743
Juegos2689
  PC1736
Variados1521
  Deportes36
  Programas592
  Videoclips102
  Otros722
Música MP3 3525
Total Torrents57258

Informacin
Esta web no contiene ningn tipo de fichero almacenado.

Todos los archivos se comparten mediante el BitTorrent, un programa P2P de intercambio entre usuarios.



Descarga la ltima versin de uTorrent y baja a la mxima velocidad:
Beyonce - Lemonade
Total Descargas:  2.343 En Enero:  2.343

Fecha:  2017-05-02



Torrent:      Descargar         Tamao:  3,17 GB
Descripcin:

General

Format : MPEG-4
Format profile : Base Media
File size : 3.17 GB
Duration : 1h 5mn
Overall bit rate : 6 962 Kbps
Writing application : Lavf57.25.100

Video

ID : 1
Format : AVC
Format/Info : Advanced Video Codec
Format profile : [email protected]
Format settings, CABAC : Yes
Format settings, ReFrames : 8 frames
Codec ID : avc1
Codec ID/Info : Advanced Video Coding
Duration : 1h 5mn
Bit rate : 6 637 Kbps
Width : 1 920 pixels
Height : 1 080 pixels
Display aspect ratio : 16:9
Frame rate mode : Constant
Frame rate : 23.976 (24000/1001) fps
Bit depth : 8 bits
Scan type : Progressive
Bits/(Pixel*Frame) : 0.133
Stream size : 3.03 GiB (95%)
Writing library : x264 core 148

Audio

ID : 2
Format : AAC
Format/Info : Advanced Audio Codec
Format profile : LC
Codec ID : 40
Duration : 1h 5mn
Duration_LastFrame : 36ms
Bit rate mode : Constant
Bit rate : 320 Kbps
Channel(s) : 2 channels
Channel positions : Front: L R
Sampling rate : 48.0 KHz
Frame rate : 46.875 fps (1024 spf)
Compression mode : Lossy
Stream size : 150 MiB (5%)
Language : English
Default : Yes
Alternate group : 1



Volver al ndice de Variados







Datos legales


08:57:03
computer